#TITLE:My Spirit will Go on;
#SUBTITLE:~Magna Trick re-edit~;
#ARTIST:Dragonforce;
#TITLETRANSLIT:;
#SUBTITLETRANSLIT:;
#ARTISTTRANSLIT:;
#CREDIT:;
#BANNER:banner.png;
#BACKGROUND:bg.png;
#LYRICSPATH:;
#CDTITLE:;
#MUSIC:My Spirit Will Go On.mp3;
#OFFSET:-5.600;
#SAMPLESTART:29.820;
#SAMPLELENGTH:12.000;
#SELECTABLE:YES;
#BPMS:0.000=200.000;
#STOPS:;
#BGCHANGES:;
// cache tags:
#FIRSTBEAT:5.000;
#LASTBEAT:1571.500;
#SONGFILENAME:Songs/Music V.I.P ^_^/(Magna Trick) My Spirit will Go on/mswgo.sm;
#HASMUSIC:1;
#HASBANNER:1;
#MUSICLENGTH:478.445;
// end cache tags

//---------------dance-single - ----------------
#NOTES:
     dance-single:
     :
     Challenge:
     13:
     1.000,1.000,1.000,0.355,1.000,3926.000,612.000,170.000,0.000,26.000:
0000
0000
0000
0000
,
0000
0000
1001
1000
0001
1000
1000
0100
,
0010
0001
0110
1000
1000
0001
1000
1000
,
0001
0010
0110
1000
1000
0100
0010
0010
,
0001
0010
0101
1000
1000
0001
0100
0100
,
0010
1000
0110
0001
0001
0010
0100
0100
,
1000
0010
0101
1000
1000
0010
0100
0100
,
0001
0010
0101
1000
1000
0010
0100
0100
,
0001
0010
1100
0010
0010
1000
0010
0010
,
0001
1000
0011
0010
0100
0010
0001
0001
,
1000
1000
0011
1000
0100
0100
1000
0010
,
1010
1000
1001
0100
0010
0010
1000
0100
,
0100
1000
0011
0100
0010
0010
1000
0100
,
0100
1000
0011
0100
0001
0001
1000
0010
,
0010
1000
0110
1000
0001
0001
1000
0100
,
0100
1000
0011
0100
0001
0001
1000
0100
,
0100
1000
0011
0100
0001
0001
1000
0100
,
0100
0000
1000
0000
0011
1000
0001
0000
0100
0000
0010
0000
1001
0000
0000
0000
,
1100
0000
0000
0000
1000
0001
1000
0000
0100
0000
0010
0000
0101
0000
0000
0000
,
0011
0000
0000
0000
0001
0100
0001
0000
1000
0000
0010
0000
1001
0000
0000
0000
,
1010
0000
0000
0000
0100
1000
0100
0000
0010
0000
0001
0000
1001
0000
0000
0000
,
0101
0000
0000
0000
0010
1000
0010
0000
0100
0000
0001
0000
1001
0000
0000
0000
,
0110
0000
0000
0000
0001
1000
0001
0000
0010
0000
0100
0000
0110
0000
0000
0000
,
1001
0000
0000
0000
0100
1000
0100
0000
0010
0000
0001
0000
0101
0000
0000
0000
,
1010
0000
0000
0000
1000
0010
1000
0000
0001
0000
0100
0000
1010
0000
0000
0000
,
0101
0000
1001
0010
0100
1001
0010
0001
,
1100
0010
1001
1000
0010
0101
1000
0100
,
0011
1000
0011
1000
0001
0110
0001
0010
,
1100
0001
1010
0100
1000
0110
0001
0010
,
0101
1000
0011
0100
0010
1001
0010
0100
,
1010
0001
1100
0010
0100
1010
0001
1000
,
0110
1000
0101
0010
0100
0011
1000
0001
,
0110
0001
1100
0010
0100
1001
0010
1000
,
0101
0000
0010
0000
1001
0100
0010
0100
0010
0100
0010
0100
0010
0100
0010
0100
,
0010
0100
0010
0100
2001
0000
0000
0000
3102
0000
0000
0000
2013
0000
0000
0000
,
3101
0000
0000
0000
1001
0100
0010
0001
0100
0010
1000
0001
0010
0100
1000
0010
,
1000
0010
0100
0001
0100
0001
0010
0100
0010
0100
1000
0010
1000
0001
0010
0001
,
1000
0100
0010
0001
1100
0000
0010
0000
0001
0000
0110
0000
1000
0000
0001
0000
,
1100
0000
0010
0000
0101
0000
1000
0000
0001
0000
0100
0000
0001
0010
0100
1000
,
0010
1000
0100
0010
1001
0100
0010
0001
0100
0010
1000
0001
0010
0100
1000
0010
,
1000
0001
0100
0001
0010
0100
1000
0010
1000
0010
0100
0001
0100
0001
0010
0100
,
0010
0100
1000
0001
1010
0000
0100
0000
0010
0000
0101
0000
1000
0000
0100
0000
,
0011
1000
0110
0001
0010
0100
1001
0010
,
0101
0000
1000
0000
0110
0001
0010
0100
1000
0010
1000
0001
0100
0001
0010
0100
,
1000
0001
1000
0001
0100
0010
1000
0010
0100
0001
0100
0001
0010
0100
1000
0010
,
1000
0001
0100
0010
1001
0000
0100
0000
0010
0000
0101
0000
0010
0000
1000
0000
,
1001
0010
0120
1000
0031
0100
1001
0100
,
0011
0000
1000
0000
0101
1000
0100
0010
0001
0100
0010
1000
0001
0010
0100
1000
,
0010
1000
0001
0100
0001
0100
0010
1000
0001
1000
0100
0010
0001
1000
0010
0100
,
0001
0010
0100
1000
0010
1000
0001
0010
0001
1000
0010
0100
0001
1000
0001
1000
,
0010
0100
0010
0100
0001
0010
0100
1000
0010
0001
0010
1000
0001
0010
0100
1000
,
0001
0100
0010
1000
0202
0000
0000
0000
0303
0000
0000
0000
0000
0000
0000
0000
,
0000
0000
0000
0000
1001
0100
0010
0001
0100
0010
1000
0001
1000
0001
0010
0100
,
0010
0100
1000
0010
1000
0010
0100
0001
0100
0001
0010
1000
0010
0001
0100
0010
,
1000
0001
0010
0001
0010
0001
0100
0010
1000
0010
1000
0010
0100
0010
0100
0001
,
0100
0010
1000
0010
1000
0100
0010
0100
1000
0010
0100
0001
0010
0100
0010
0001
,
0100
0010
0100
0001
1000
0010
0100
0001
0010
0100
1000
0001
0100
0010
1000
0001
,
1000
0001
0010
0100
0010
0100
0001
1000
0010
0100
1000
0001
0100
0010
1000
0001
,
0010
0100
0010
0100
1001
0000
0010
0000
0001
0000
0010
0000
1010
0000
0001
0000
,
1000
0000
0001
0000
1001
0010
1000
0001
0000
0000
1001
0010
0100
0001
0000
0000
,
1002
0000
1103
0100
1001
0011
0100
1001
,
0010
0100
0011
1000
0110
0011
0100
0010
,
1001
0010
1100
0001
0010
0101
1000
0100
,
0011
1000
0110
0010
1001
1001
0100
0010
,
0101
1000
1010
0100
0010
1100
0001
1000
,
0011
0100
1010
0100
1000
0011
0010
1000
,
0101
0001
1010
0100
0010
1001
0100
0010
,
1100
0000
0001
0000
0101
0000
1001
0010
0100
0001
1000
0100
0010
0001
0100
0010
,
1000
0001
0010
0100
1001
0000
0000
0000
0001
0010
0100
1000
0010
0100
0001
0010
,
0100
1000
0010
1000
0001
0100
0001
0010
0100
1000
0100
0010
0100
0001
0010
0100
,
1000
0010
1000
0001
1100
0000
0010
0000
0101
0000
0010
0000
0101
0000
1100
0000
,
0100
0011
1000
0110
0010
1001
0100
0010
,
1000
0000
0001
0100
0001
1000
0100
1000
0001
0010
0001
1000
0010
1000
0001
1000
,
0001
0010
0001
1000
0001
0100
0010
1000
0001
0010
0100
1000
0110
0000
0001
0000
,
1001
0100
1010
0010
1001
1001
0100
1000
,
0101
0000
0010
0000
1100
0001
0010
0100
1000
0100
0010
0001
0010
0100
1000
0100
,
0010
0001
0010
0000
1000
0000
0001
0000
0110
0000
0001
0000
1010
0000
0100
0000
,
0011
0100
1100
0010
0101
1010
0001
1100
,
0010
0000
0100
0000
1010
0100
0001
0010
1000
0001
0100
1000
0010
0100
0001
0010
,
0100
1000
0010
1000
0001
0100
0001
0010
0100
1000
0001
0100
0010
0100
0010
1000
,
0001
1000
0001
0010
0101
0000
0010
0000
1001
0000
0010
0000
1100
0000
0010
0000
,
0110
0001
1100
0010
0101
1010
0100
0001
,
1001
0000
0010
0000
0110
0000
1000
0000
0101
1000
0010
0100
0001
0010
0100
1000
,
0010
1000
0001
0100
0001
0010
0100
1000
0010
0001
1000
0100
0001
0010
0100
1000
,
0010
0100
0001
0010
1001
0000
0100
0000
0011
0000
1010
0000
0110
0000
0001
0000
,
1010
0100
1010
0001
0110
1100
0010
0101
,
0010
1100
0011
0100
1010
0101
0010
1100
,
0001
1001
1010
0100
0101
1010
0100
0001
,
0011
0000
0100
0000
1010
0100
0001
0010
0100
1000
0010
1000
0100
0010
0001
0010
,
0100
1000
0100
0010
0100
0010
0001
0010
0100
1000
0100
0010
0001
0100
0010
1000
,
0010
0100
0001
0010
2200
0000
0000
0000
3300
0000
0202
0000
0000
0000
0303
0000
,
0022
0033
0220
0000
0330
2200
0000
3300
,
2002
0000
3103
0010
0001
1001
1100
0010
,
0101
0010
1100
0010
0011
1100
0010
0001
,
0101
0010
1010
0100
0110
1010
0001
0100
,
1010
0000
0100
0000
0110
0001
1000
0010
0100
0000
1001
0010
0100
0001
0010
0000
,
0100
1000
0100
0000
0010
0000
0001
0000
1000
0000
1001
0000
0101
0000
0010
0000
,
1100
0001
0101
0010
1100
0011
0100
1000
,
0011
0010
1100
0010
1001
0101
0010
1000
,
0101
0000
1000
0000
0011
0000
0100
0000
1010
0000
0100
0000
0010
0100
0010
0100
,
0001
0010
0100
1000
0100
0000
0010
0000
0011
0000
0100
0000
1100
0000
0010
0000
,
0110
0001
1001
0010
1001
0110
1000
0001
,
0011
0100
1010
0100
1001
0110
0001
0100
,
0011
1000
0101
1000
0100
0010
0001
0100
,
0010
0000
1000
0000
0100
0010
0001
0100
0010
1000
0001
0010
0100
1000
0010
1000
,
0100
0010
0001
0100
1000
0100
0001
0010
0100
1000
0100
0010
0001
0010
0100
1000
,
0010
1000
0001
0100
0001
1000
0001
1000
0001
1000
0001
1000
0001
1000
0001
1000
,
0011
1000
0001
0000
1100
0000
0000
0000
0000
0000
1001
0000
0000
0000
0000
0000
,
0101
0000
0110
0000
2001
0100
3002
0010
,
2003
0010
3200
0001
2300
0100
3021
0100
,
1031
0110
1000
0001
0100
0010
0002
0100
,
2003
0010
3200
0001
2300
0100
3002
1000
,
0113
2001
0100
3010
0001
0100
0002
0010
,
2003
0010
3200
0001
2300
0100
3002
0010
,
0203
0001
0300
0001
1000
0100
1000
0100
,
1000
0100
0000
0001
1000
0001
0100
0001
,
0010
0100
1000
0010
1002
0010
2003
0100
,
3002
0100
0023
1000
0032
0010
1203
0010
,
1301
0110
0001
1000
0010
0100
2000
0010
,
3002
0100
0023
1000
0032
0010
2003
0001
,
3110
1002
0010
0103
1000
0010
2000
0100
,
3002
0100
0023
1000
0032
0010
2003
0100
,
3020
1000
0030
1000
0001
0010
0001
0010
,
0001
0010
0000
1000
0001
1000
0010
1000
,
0100
0012
0000
0000
0000
0000
0000
0000
,
0000
0000
0000
0003
0000
0000
1001
0000
0000
0000
0010
0000
0001
0000
0010
0000
0100
0000
1000
0000
0001
0000
0010
0000
,
0100
1000
0000
1010
0100
0010
0001
1000
0100
0010
0001
1000
,
0100
0000
0000
0000
0010
0000
0000
0000
0001
0000
0000
0000
1001
0000
0000
0010
0000
0000
0100
0000
0000
1000
0000
0000
0010
0000
0000
0100
0000
0000
0001
0000
0000
1000
0000
0000
0001
0000
0000
1000
0000
0000
0100
0000
0000
0010
0000
0000
,
0100
0010
0001
0100
0001
0100
0010
1000
0010
1000
0100
0001
0100
1000
0010
0100
,
0001
1000
0100
1000
0100
1000
0010
0100
0001
0100
0001
0100
0010
0100
0010
1000
,
0010
0100
0001
0100
0001
0010
0100
0010
0001
0100
0010
1000
0100
0010
0100
1000
,
0010
0100
0010
1000
0001
0100
0010
1000
0100
0010
0001
1000
0010
0100
0001
1000
,
0001
1000
0100
0010
0100
0010
1000
0001
0100
0010
0001
1000
0010
0100
0001
1000
,
0100
0010
0100
0010
1001
0000
0100
0000
1000
0000
0100
0000
0101
0000
1000
0000
,
0001
0000
1000
0000
1001
0100
0001
1000
0010
0100
0001
0100
0010
1000
0100
0010
,
0001
0010
0100
0000
0011
0000
0010
0000
1001
0000
1100
0000
0010
0000
1001
0000
,
0100
0010
1100
0001
0110
1100
0010
0100
,
1001
0100
0011
1000
0100
1010
0001
0010
,
1100
0001
0110
0100
1001
1001
0010
0100
,
1010
0001
0101
0010
0100
0011
1000
0001
,
1100
0010
0101
0010
0001
1100
0100
0001
,
1010
1000
0101
0010
0100
1001
0010
0100
,
0011
0000
1000
0000
1010
0000
1001
0100
0010
1000
0001
0010
0100
1000
0010
0100
,
0001
1000
0100
0010
1001
0000
0010
0100
1000
0100
0010
0001
0100
0010
1000
0100
,
0010
0001
0100
0001
1000
0010
1000
0100
0010
0001
0010
0100
0010
1000
0100
0010
,
0001
0100
0001
1000
0011
0000
0100
0000
1010
0000
0100
0000
1010
0000
0011
0000
,
0010
1100
0001
0110
0100
1001
0010
0100
,
0001
0000
1000
0010
1000
0001
0010
0001
1000
0100
1000
0001
0100
0001
1000
0001
,
1000
0100
1000
0001
1000
0010
0100
0001
1000
0100
0010
0001
0110
0000
1000
0000
,
1001
0010
0101
0100
1001
1001
0010
0001
,
1010
0000
0100
0000
0011
1000
0100
0010
0001
0010
0100
1000
0100
0010
0001
0010
,
0100
1000
0100
0000
0001
0000
1000
0000
0110
0000
1000
0000
0101
0000
0010
0000
,
1100
0010
0011
0100
1010
0101
1000
0011
,
0100
0000
0010
0000
0101
0010
1000
0100
0001
1000
0010
0001
0100
0010
1000
0100
,
0010
0001
0100
0001
1000
0010
1000
0100
0010
0001
1000
0010
0100
0010
0100
0001
,
1000
0001
1000
0100
1010
0000
0100
0000
1001
0000
0100
0000
0011
0000
0100
0000
,
0110
1000
0011
0100
1010
0101
0010
1000
,
1001
0000
0100
0000
0110
0000
0001
0000
1010
0001
0100
0010
1000
0100
0010
0001
,
0100
0001
1000
0010
1000
0100
0010
0001
0100
1000
0001
0010
1000
0100
0010
0001
,
0100
0010
1000
0100
1001
0000
0010
0000
1100
0000
0101
0000
0110
0000
1000
0000
,
0101
0010
0101
1000
0110
0011
0100
1010
,
0100
0011
1100
0010
0101
1010
0100
0011
,
1000
1001
0101
0010
1010
0101
0010
1000
,
1100
0000
0010
0000
0101
0010
1000
0100
0010
0001
0100
0001
0010
0100
1000
0100
,
0010
0001
0010
0100
0010
0100
1000
0100
0010
0001
0010
0100
1000
0010
0100
0001
,
0100
0010
1000
0100
0022
0000
0000
0000
0033
0000
2020
0000
0000
0000
3030
0000
,
2200
0000
3300
0000
0220
0000
0000
0000
0330
0000
0012
0000
1000
0100
1003
0100
,
1001
0010
0100
0001
0010
0000
0100
0000
1000
0000
1001
0000
0011
0000
0100
0000
,
1010
0100
0011
0100
1100
0011
0100
1000
,
1010
0100
0101
0010
0110
0101
1000
0010
,
0101
0010
0110
0001
0010
1001
0010
0100
,
0010
0001
0010
0000
0100
0000
1000
0000
0001
0000
1001
0000
1010
0000
0100
0000
,
0011
1000
1010
0100
0011
1100
0010
0001
,
1100
0100
0011
0100
1001
1010
0100
0001
,
1010
0000
0001
0000
1100
0000
0010
0000
0101
0000
0010
0000
0100
0010
0100
0010
,
1000
0100
0010
0001
0010
0000
0100
0000
1100
0000
0010
0000
0011
0000
0100
0000
,
0110
1000
1001
0100
1001
0110
0001
1000
,
1100
0010
0101
0010
1001
0110
1000
0010
,
1100
0001
1010
0001
0010
0100
1000
0010
,
0100
0000
0001
0000
0010
0100
1000
0010
0100
0001
1000
0100
0010
0001
0100
0001
,
0010
0100
1000
0010
0001
0010
1000
0100
0010
0001
0010
0100
1000
0100
0010
0001
,
0100
0001
1000
0010
1000
0001
1000
0001
1000
0001
1000
0001
1000
0001
1000
0001
,
1100
0001
1000
0000
0011
0000
0000
0000
0000
0000
1001
0000
0000
0000
0000
0000
,
1010
0000
0110
0000
1002
0010
2003
0100
,
3002
0100
0023
1000
0032
0010
1203
0010
,
1301
0110
0001
1000
0010
0100
2000
0010
,
3002
0100
0023
1000
0032
0010
2003
0001
,
3110
1002
0010
0103
1000
0010
2000
0100
,
3002
0100
0023
1000
0032
0010
2003
0100
,
3020
1000
0030
1000
0001
0010
0001
0010
,
0001
0010
0000
1000
0001
1000
0010
1000
,
0100
0010
0001
0100
2001
0100
3002
0010
,
2003
0010
3200
0001
2300
0100
3021
0100
,
1031
0110
1000
0001
0100
0010
0002
0100
,
2003
0010
3200
0001
2300
0100
3002
1000
,
0113
2001
0100
3010
0001
0100
0002
0010
,
2003
0010
3200
0001
2300
0100
3002
0010
,
0203
0001
0300
0001
1000
0100
1000
0100
,
1000
0100
0000
0001
1000
0001
0100
0001
,
0010
2100
0000
0000
0000
0000
0000
0000
,
0000
0000
0000
3000
0000
0000
1001
0000
0000
0000
0100
0000
1000
0000
0100
0000
0010
0000
0001
0000
1000
0000
0100
0000
,
0010
0001
0000
0101
0010
0100
1000
0001
0010
0100
1000
0001
,
0010
0000
0000
0000
0100
0000
0000
0000
1000
0000
0000
0000
1100
0000
0000
0001
0000
0000
1000
0000
0000
0000
0000
0000
0010
0000
0000
0000
0000
0000
0100
0000
0000
0000
0000
0000
1001
0000
0000
0000
0000
0000
0000
0000
0000
0000
0000
0000
,
0011
0000
0000
0000
0001
1000
0001
0000
0010
0000
0100
0000
1010
0000
0000
0000
,
1100
0000
0000
0000
1000
0010
1000
0000
0001
0000
0100
0000
1001
0000
0000
0000
,
0101
0000
0000
0000
0010
0001
0010
0000
0100
0000
1000
0000
1001
0000
0000
0000
,
1010
0000
0000
0000
0100
0001
0100
0000
0010
0000
1000
0000
1001
0000
0000
0000
,
0110
0000
0000
0000
1000
0001
1000
0000
0100
0000
0010
0000
0110
0000
0000
0000
,
1001
0000
0000
0000
0010
0001
0010
0000
0100
0000
1000
0000
1010
0000
0000
0000
,
0101
0000
0000
0000
0001
0100
0001
0000
1000
0000
0010
0000
0101
0000
0000
0000
,
1010
0000
1001
0100
0010
1001
0100
1000
,
0011
0100
1001
0001
0100
1010
0001
0010
,
1100
0001
1100
0001
1000
0110
1000
0100
,
0011
1000
0101
0010
0001
0110
1000
0100
,
1010
0001
1100
0010
0100
1001
0100
0010
,
0101
1000
0011
0100
0010
0101
1000
0001
,
0110
0001
1010
0100
0010
1100
0001
1000
,
0110
1000
0011
0100
0010
1001
0100
0001
,
1010
0100
0010
0100
0010
0000
0000
0000
1000
0000
0000
0000
0100
0000
0010
0000
,
0001
0100
0000
0000
0001
1000
0000
0100
,
1000
0001
1000
0001
2000
0000
0000
0000
3001
0000
1000
0000
0100
1000
0100
1000
,
0100
1000
0001
0100
0001
0100
0001
0010
0001
0010
0001
0010
0001
0000
0000
0000
,
1000
0000
0000
0000
0001
0000
0010
0100
0000
0000
0000
1001
0000
0000
0000
0000
,
0001
1000
0001
1000
0001
0010
0100
0010
0001
0010
0100
1000
0100
0010
0001
0010
,
0001
0010
0100
1000
0100
1000
0100
1000
0100
0010
0001
0100
0001
0010
0100
1000
,
0100
0010
0001
0100
0010
1000
0001
0000
1000
0000
0000
0000
0010
0000
0100
0000
,
1000
0000
0000
0100
0000
0000
0010
0000
0001
0000
1000
0000
0100
0000
0010
0000
,
0100
0010
0001
0100
0010
1000
0002
0000
0000
0000
0003
0000
0001
0100
0010
1000
,
0100
1000
0100
1000
0100
1000
0100
1000
0001
0100
0001
0100
0001
0100
0001
0100
,
0001
0010
0001
0010
0001
0010
0001
0010
0001
0100
0010
0100
0010
0100
0010
0100
,
1000
0100
0001
0010
0100
1000
0001
0010
0100
1000
0010
1000
0100
0010
0001
0100
,
0010
1000
0010
1000
0100
0010
0001
1000
0010
1000
0001
0010
0100
1000
0010
1000
,
0001
0010
0100
1000
0001
1000
0010
0100
0001
0010
0001
1000
0100
1000
0100
1000
,
0100
1000
0010
1000
0001
1000
0001
1000
0001
0100
0001
0100
0001
0100
0001
0100
,
0001
0100
0001
0100
0001
0010
0001
0010
0001
0010
0001
0010
0001
0100
0010
0100
,
0010
0100
0010
0100
0010
1000
0100
1000
0100
1000
0100
1000
0010
1000
0010
1000
,
0010
1000
0010
0100
0010
0100
0010
0100
0001
0100
0001
0100
0001
0010
0100
0010
,
0001
1000
0100
0000
0010
0001
1000
0100
0010
0001
1000
0100
1000
0100
0010
0001
,
0100
0010
1000
0001
0010
0100
1000
0010
1000
0001
0100
0001
1000
0010
0200
0000
,
0000
0000
0000
0300
0002
0000
0000
0000
,
2003
0000
0000
0000
3000
0200
0000
0000
,
0000
0000
0000
0300
0000
0000
0020
0000
0000
0000
0000
0000
0000
0000
0000
0000
0000
0000
0000
0000
0000
0031
0000
1000
,
0000
0100
0000
0010
0000
0001
0000
0100
0000
0010
0000
1000
0000
0001
0000
0010
0000
0100
0000
1000
0000
0010
0000
0100
,
0000
0001
0000
0010
0000
0100
0000
1000
0000
0010
0000
1000
0000
0001
0000
0020
0000
0000
0000
0000
0000
0000
0000
0000
,
0000
0000
0000
0130
0000
1000
0000
0100
0000
0010
0000
0001
0000
0010
0000
0100
0000
1000
0000
0010
0000
1000
0000
0001
,
0000
0100
0000
0001
0000
0010
0000
0100
0000
1000
0000
0010
0000
0100
0000
0001
0000
0010
0000
0100
0000
0010
0000
0100
,
0000
0000
1000
0000
0000
0000
0010
0000
0000
1000
0000
0000
0100
0000
0000
0010
0000
0000
0001
0000
0000
0100
0000
0000
1010
0000
0000
0000
0000
0000
0000
0000
0000
0000
0000
0000
0000
0000
0000
0000
0000
0000
0000
0000
0000
0000
0000
0000
,
1001
0000
1001
0000
,
1001
0000
2002
0000
,
0000
0000
0000
0000
3003
0000
0000
0000
0001
0010
0001
0010
0001
0010
0001
0010
,
0001
0010
0001
0010
0001
0010
0100
1000
0010
0100
0001
0010
0100
1000
0010
1000
,
0001
0100
0001
0100
0010
1000
0001
0010
0100
1000
0010
0100
0001
0100
0001
0100
,
0001
0100
0010
1000
0010
1000
0010
1000
0010
1000
0010
1000
1000
0200
0000
0300
,
0000
0001
0010
0100
1000
0020
0000
0030
0000
1000
0100
1000
0100
1000
0100
1000
,
0001
0100
0001
0100
0001
0100
0001
0010
0001
0010
0001
0010
0100
0010
0100
1000
,
0010
0100
0001
0100
0010
1000
0100
0010
0001
0100
0001
0010
0100
0000
1000
0000
,
0001
0100
0010
0100
0001
1000
0100
0010
,
2002
0000
0000
3003
1001
0000
0110
0000
,
1001
0000
0101
0001
0010
0100
1000
0001
,
0000
0000
0000
0000
0000
0000
2000
0000
0000
0000
0000
0000
0000
0000
0000
0000
0000
0000
3000
0000
0000
0000
0000
0000
0100
0000
0000
0000
1000
0000
0000
0000
0100
0000
0000
0000
0010
0000
0000
0001
0000
0000
0100
0000
0000
0010
0000
0000
,
1000
0001
0010
0100
1000
0010
1000
0010
0100
0010
0100
0010
0001
0010
0001
0010
,
0100
0010
1000
0100
0010
0001
0100
0010
1000
0100
1000
0100
1000
0100
1000
0100
,
0010
0001
0010
0001
0010
0001
0010
0001
0100
0010
1000
0001
0010
0100
1000
0010
,
1000
0010
0100
0010
1000
0100
0010
0001
0010
0000
0200
0000
0000
0300
1000
0001
,
1000
0001
0010
0001
0100
0000
0000
0000
0001
1000
0100
0000
1000
0001
0100
0000
,
2002
0000
0000
0000
3003
0000
0000
0000
0100
1000
0010
0100
0001
1000
0100
0010
,
0001
0100
0001
0100
0010
0100
0010
0100
1000
0100
1000
0100
0010
0100
0001
0010
,
0100
1000
0010
0100
0001
0010
0001
0010
0001
0010
0001
0010
0100
1000
0100
1000
,
0100
1000
0100
1000
0010
0100
0001
1000
0100
0010
0001
0100
0001
0000
0010
0000
,
0002
0000
0000
0000
0003
0000
0000
0000
0001
0010
0100
0010
0100
0001
1000
0100
,
1000
0100
0010
0100
1000
0100
1000
0010
1000
0001
0100
0010
0001
1000
0001
0100
,
1000
0010
0001
0100
1000
0010
1000
0010
0001
0010
0100
1000
0010
0001
0100
0010
,
0001
1000
0010
1000
0001
0100
0010
0001
0010
1000
0100
0010
0001
0100
0010
0001
,
1000
0001
0010
0001
0000
0000
0000
0000
0100
0000
0010
0000
0100
0000
0010
0000
,
0100
0010
0100
0010
1000
0010
1000
0010
,
1000
0010
1000
0010
1000
0100
1000
0100
,
1000
0100
1000
0100
0010
0100
0010
0100
,
0010
0100
0010
0100
0010
0001
0010
0001
,
0010
0001
0010
0001
0100
0001
0100
0001
,
0100
0001
0100
0001
0100
0010
0100
0010
,
0100
0010
0100
0010
1000
0010
1000
0010
,
1000
0010
1000
0010
1001
0110
0000
0001
,
0000
1000
0100
1000
0001
0200
0000
2310
,
0000
3010
0001
1000
0010
0100
0001
1001
,
0000
0010
0001
0010
1000
0010
0100
1000
,
0100
0010
0001
0010
0100
1000
0100
0010
1001
0000
0120
0000
0000
0000
0231
0000
,
0000
1300
0100
0010
1001
2010
0000
3102
,
0000
0000
1003
0000
0010
0000
0001
0000
0010
1000
0010
1000
0010
1000
0100
0010
,
0001
0010
0001
0010
0001
0100
0010
1000
0001
1000
0001
1000
0001
0000
0100
0010
,
1000
0001
1000
0001
0010
0100
0010
0100
1000
0000
0100
0000
1000
0000
0001
0000
,
0100
0001
0010
0001
0010
1000
0010
0001
,
0100
0001
0100
0010
1000
0001
1000
0100
,
0010
0001
0010
0100
1000
0010
0100
0001
,
0100
0010
1000
0001
1000
0100
1000
0001
,
0100
0001
0010
0001
0010
0100
1000
0010
,
1000
0001
0100
0010
1000
0001
1000
0100
,
0010
0000
0001
0000
0010
0000
1000
0000
0010
1000
0001
0000
0100
0010
1000
0000
,
0001
0100
0001
0000
1000
0000
1001
0000
0000
0000
0000
0000
0002
0000
0000
0000
,
2003
0000
3200
0000
2300
0000
0000
3002
,
0000
0000
0000
0000
0203
0000
0000
0000
0301
1000
0100
0010
0001
0000
0100
0000
,
1000
0000
0100
0000
0002
0000
0000
0000
0103
0010
1000
0100
0010
0000
0001
0000
,
0010
0000
0100
1000
0010
1000
0010
1000
0011
0000
0100
0000
0001
0000
0010
0000
,
0100
1000
0100
0010
1001
0100
0010
1000
,
0010
0000
1000
0000
0100
0000
0010
0000
0101
1000
0100
0010
0001
0100
0010
1000
,
0001
0010
0100
1000
0010
1000
0001
0100
0010
1000
0001
0010
0100
1000
0010
0100
,
0001
0010
0001
0010
0100
1000
0010
1000
0001
1000
0100
1000
0100
1000
0100
1000
,
0100
1000
0100
1000
0100
1000
0100
1000
0100
0010
0001
0100
0001
0100
0001
0100
,
0001
0100
0001
0100
0001
0100
0001
0100
0001
1000
0001
1000
0001
2000
0000
0000
,
3000
0001
1000
0001
1000
0002
0000
0000
1003
0100
0010
0001
0100
0010
1000
0001
,
0010
0100
1000
0010
0100
0001
0010
1000
0010
1000
0001
0100
0001
0100
0010
1000
,
0001
1000
0100
1000
0100
0010
0100
0010
0001
0100
0001
0100
0010
1000
0100
0010
,
0001
0100
0001
1000
0010
0100
0010
1000
0001
0010
0100
1000
0010
1000
0100
0010
,
0001
0100
0010
1000
0001
0010
0100
1000
0100
0010
0001
0100
0010
1000
0001
0010
,
0100
1000
0010
1000
0001
0100
0001
1000
1001
0000
0100
0000
0010
0000
1100
0000
,
0010
0001
0101
0010
0011
0100
1000
0110
,
0001
0010
1100
0001
1010
0100
0010
0101
,
0010
0100
0011
1000
0110
0001
0010
1100
,
0100
0001
1010
0100
1001
0010
0001
1100
,
0010
1000
0101
1000
0011
0100
0010
0110
,
0001
0010
1100
0100
1001
0010
0100
0010
,
2002
0000
0000
0000
0000
0000
3003
0000
0001
0010
0100
1000
0100
0010
0001
0100
,
0010
1000
0010
0100
0001
0100
0010
0000
1010
0000
0001
0000
0010
0000
1100
0000
,
0001
0010
0101
1000
0011
0100
0010
1100
,
0001
0010
0101
1000
0011
1000
0001
0110
,
1000
0001
1010
0100
1001
0010
1000
0101
,
0010
1000
0011
0100
0110
1000
0010
1100
,
0001
0010
1010
0001
0101
1000
0010
0101
,
1000
0100
0011
1000
0110
1000
0001
0010
,
2200
0000
0000
0000
0000
0000
0000
0000
3300
0000
0001
1000
0100
0010
0001
0100
,
0010
1000
0001
0010
0100
1000
0010
1000
0002
0000
0000
0000
0113
0000
1000
0000
,
0101
0010
1100
0010
0011
0100
1010
0101
,
1000
0000
0011
0000
0100
0000
0010
0000
0101
0010
1000
0100
0001
1000
0010
0001
,
0100
0010
1000
0100
0010
0001
0100
0001
1000
0010
1000
0100
0010
0001
1000
0010
,
0100
0010
0100
0001
1000
0001
1000
0100
1010
0000
0100
0000
1001
0000
0100
0000
,
0011
0100
0110
1000
0011
0100
1010
0101
,
0010
0000
1000
0000
1001
0000
0100
0000
0110
0000
0001
0000
1010
0001
0100
0010
,
1000
0100
0010
0001
0100
0001
1000
0010
1000
0100
0010
0001
0100
1000
0001
0010
,
1000
0100
0010
0001
0100
0010
1000
0100
1001
0000
0010
0000
1100
0000
0101
0000
,
0110
1000
0101
0010
0101
1000
0110
0011
,
0100
1010
0100
0011
1100
0010
0101
1010
,
0100
0011
1000
1001
0101
0010
1010
0101
,
0010
0000
1000
0000
1100
0000
0010
0000
0101
0010
1000
0100
0010
0001
0100
0001
,
0010
0100
1000
0100
0010
0001
0010
0100
0010
0100
1000
0100
0010
0001
0010
0100
,
1000
0010
0100
0001
0100
0010
1000
0100
0022
0000
0000
0000
0033
0000
2020
0000
,
0000
0000
3030
0000
2200
0000
3300
0000
0110
0001
1000
0001
1000
0001
0110
1000
,
0001
1000
0001
1000
0110
0001
1000
0001
0020
0000
0000
0000
0000
0000
0000
0000
,
1031
0010
0101
0010
1100
0010
0011
1100
,
0010
0001
0101
0010
1010
0100
0110
1010
,
0001
0100
1010
0100
0110
1000
0100
1001
,
0100
0000
0010
0000
0100
1000
0100
0000
0010
0000
0001
0000
1000
0000
1001
0000
,
0101
0010
1100
0001
0101
0010
1100
0011
,
0100
1000
0011
0010
1100
0010
1001
0101
,
0010
1000
0101
1000
0011
0100
1010
0100
,
0010
0100
0010
0100
0001
0010
0100
1000
0100
0000
0010
0000
0011
0000
0100
0000
,
1100
0010
0110
0001
1001
0010
1001
0110
,
1000
0001
0011
0100
1010
0100
1001
0110
,
0001
0100
0011
1000
0101
1000
0100
0010
,
0001
0000
0100
0000
0010
0000
1000
0000
0100
0010
0001
0100
0010
1000
0001
0010
,
0100
1000
0010
1000
0100
0010
0001
0100
1000
0100
0001
0010
0100
1000
0100
0010
,
0001
0010
0100
1000
0010
1000
0001
0100
0001
1000
0001
1000
0001
1000
0001
1000
,
0001
0000
0000
1000
0000
0000
0001
0000
0000
1000
0000
0000
0001
0000
0000
1000
0000
0000
0001
0000
0000
1000
0000
0000
0001
0000
0100
0000
0010
0000
1000
0000
0000
0100
0000
0000
0010
0000
0001
0000
0100
0000
0010
0000
0000
1000
0000
0000
,
0100
0000
0010
0000
0001
0000
0100
0000
0000
0010
0000
0000
1000
0000
0000
0001
0000
0000
1000
0000
0000
0001
0000
0000
1000
0000
0000
0100
0000
0000
0010
0000
0000
0001
0000
0000
0100
0000
0000
0010
0000
0000
1000
0000
0000
0001
0000
0000
,
0010
0100
1000
0010
1000
0001
0100
0001
1000
0001
0010
0100
1000
0010
1000
0001
,
0100
0001
1000
0100
1000
0001
0010
0001
1000
0001
1000
0001
0100
0010
0100
0010
,
1000
0001
0010
0100
2002
0000
3003
0000
0022
0000
0000
0000
0033
0000
2002
0000
,
0000
3003
0220
0330
0022
0033
1001
0220
,
0331
1000
1001
0010
1100
0001
0010
0101
,
1000
0100
0011
1000
0110
0001
0100
1100
,
0001
0010
1010
0001
0101
1000
0100
0010
,
1001
0000
0000
0000
1100
0000
0000
0000
1001
0010
1000
0001
0100
0010
0100
0001
,
0010
0100
0010
0001
0100
1000
0100
0001
0010
1000
0010
0001
1000
0010
1000
0001
,
0100
1000
0011
0100
1001
0010
0100
0011
,
0100
1000
1100
0010
0012
0000
0000
0000
,
2003
0000
0000
0000
3101
0000
0000
0000
1001
0100
0001
1000
0010
0100
0010
1000
,
0100
0010
0100
1000
0010
0001
0010
1000
0100
0001
0100
1000
0001
0100
0001
1000
,
0010
0001
1100
0010
1001
0100
0010
1100
,
0010
0001
0011
0100
2100
0000
0000
0000
,
3002
0000
0000
0000
1013
0000
0000
0000
1001
0010
1000
0001
0100
0010
0100
0001
,
0010
0100
0010
0001
0100
1000
0100
0001
0010
1000
0010
0001
1000
0010
1000
0001
,
0100
0000
0000
1000
0000
0000
0011
0000
0000
0100
0000
0000
1001
0000
0100
0000
0010
0000
0001
0000
0100
0000
0010
0000
,
1000
0000
0001
0000
0010
0000
0100
0000
1000
0000
0010
0000
1000
0100
0010
0002
0000
0000
0000
0000
0000
0000
0000
0000
,
2003
0000
0000
0000
3200
0000
0000
0000
1301
0100
0010
0001
0100
0010
1000
0001
,
0110
0001
0010
0100
1000
0010
1000
0001
0110
1000
0100
0010
0001
0100
0010
1000
,
0110
0001
0010
0100
1000
0010
0100
0010
1001
0000
0001
1000
0001
0000
0000
0000
,
1001
0000
1000
0001
1000
0000
0000
0000
0101
0010
1000
0010
0100
0001
0100
0010
,
1000
0010
0100
0001
0100
0010
1000
0010
0100
0001
0100
0010
1000
0010
0100
0001
,
0100
0010
1000
0010
0100
0001
0100
0010
2001
0000
0000
0000
0000
0000
0000
0000
,
0000
0000
0000
0000
,
0000
0000
0000
0000
0000
0000
0000
0000
0000
0000
0000
0000
0000
0000
0001
0010
,
0100
0000
0000
0010
0000
0000
0001
0000
0000
0100
0000
0000
3010
0000
0000
0000
1000
0000
0000
0000
0100
0000
0000
0000
0010
0000
0000
0000
0001
0000
0000
0000
0100
0000
0000
0000
0010
0000
0000
0000
1000
0000
0000
0000
0100
0000
0000
0000
,
0010
0000
0001
0000
0010
0000
0001
0000
0100
0000
0010
0000
,
1000
0000
0100
0000
0000
0000
0010
0000
0000
0000
0000
0000
,
0000
0000
1001
2002
0000
0000
0000
3003
;
